Jump to content

7dtd + bandicam = :(


Recommended Posts

  • 2 weeks later...

I just recorded using bandicam this afternoon with no issues but I am now having problems uploading my video to Youtube. I keep getting a message that my browser isn't secure. I use chrome and I've updated it and turned off extensions but it just isn't happening...

Link to post
Share on other sites
I just recorded using bandicam this afternoon with no issues but I am now having problems uploading my video to Youtube. I keep getting a message that my browser isn't secure. I use chrome and I've updated it and turned off extensions but it just isn't happening...

I uploaded my 2.5GB MP4 with firefox after about 1 hour of uploading and it took a while to process, I am not sure of the codec but it did upload.

 

mediainfo:

 

General

Complete name : C:\Users\BobRpgGamer\Videos\Captures\7 Days To Die 2020-04-23 15-15-00.mp4

Format : MPEG-4

Format profile : Base Media / Version 2

Codec ID : mp42 (mp41/isom)

File size : 2.85 GiB

Duration : 39 min 4 s

Overall bit rate : 10.4 Mb/s

Movie name : 7 Days To Die

Performer : Microsoft Game DVR

Encoded date : UTC 2020-04-23 22:54:03

Tagged date : UTC 2020-04-23 22:54:03

Xtra : {0CEF7D53-FA64-11D1-A203-0000F81FEDEE} 4

 

Video

ID : 1

Format : AVC

Format/Info : Advanced Video Codec

Format profile : Main@L4.1

Format settings : CABAC / 1 Ref Frames

Format settings, CABAC : Yes

Format settings, Reference frames : 1 frame

Format settings, GOP : M=1, N=29

Codec ID : avc1

Codec ID/Info : Advanced Video Coding

Duration : 39 min 4 s

Source duration : 39 min 4 s

Bit rate : 10.3 Mb/s

Width : 1 920 pixels

Height : 1 080 pixels

Display aspect ratio : 16:9

Frame rate mode : Variable

Frame rate : 30.000 FPS

Minimum frame rate : 17.534 FPS

Maximum frame rate : 60.000 FPS

Color space : YUV

Chroma subsampling : 4:2:0

Bit depth : 8 bits

Scan type : Progressive

Bits/(Pixel*Frame) : 0.165

Stream size : 2.81 GiB (99%)

Source stream size : 2.81 GiB (99%)

Encoded date : UTC 2020-04-23 22:54:03

Tagged date : UTC 2020-04-23 22:54:03

mdhd_Duration : 2344016

Codec configuration box : avcC

 

Audio

ID : 2

Format : AAC LC

Format/Info : Advanced Audio Codec Low Complexity

Codec ID : mp4a-40-2

Duration : 39 min 4 s

Bit rate mode : Constant

Bit rate : 128 kb/s

Channel(s) : 2 channels

Channel layout : L R

Sampling rate : 48.0 kHz

Frame rate : 46.875 FPS (1024 SPF)

Compression mode : Lossy

Stream size : 36.9 MiB (1%)

Encoded date : UTC 2020-04-23 22:54:03

Tagged date : UTC 2020-04-23 22:54:03

mdhd_Duration : 2344021

 

 

I don't know if this helps or not. Maybe try firefox.

Edited by bobrpggamer (see edit history)
Link to post
Share on other sites
I just recorded using bandicam this afternoon with no issues but I am now having problems uploading my video to Youtube. I keep getting a message that my browser isn't secure. I use chrome and I've updated it and turned off extensions but it just isn't happening...

 

Roland you have a channel? Anything interesting you want to share? :p

Link to post
Share on other sites

Create an account or sign in to comment

You need to be a member in order to leave a comment

Create an account

Sign up for a new account in our community. It's easy!

Register a new account

Sign in

Already have an account? Sign in here.

Sign In Now
×
×
  • Create New...